#TITLE:Exciting Hyper Highspeed Star;
#SUBTITLE:;
#ARTIST:DJ Sharpnel;
#TITLETRANSLIT:;
#SUBTITLETRANSLIT:;
#ARTISTTRANSLIT:;
#CREDIT:;
#BANNER:ehhss-bn.png;
#BACKGROUND:ehhss-bg.png;
#LYRICSPATH:;
#CDTITLE:!cdtitle.png;
#MUSIC:Exciting Hyper Highspeed Star.mp3;
#OFFSET:-0.320;
#SAMPLESTART:26.260;
#SAMPLELENGTH:18.000;
#SELECTABLE:YES;
#BPMS:0.000=180.150;
#STOPS:;
#BGCHANGES:;
// cache tags:
#FIRSTBEAT:8.000;
#LASTBEAT:314.500;
#SONGFILENAME:Songs/Music V.I.P ^_^/Exciting Hyper Highspeed Star- Gamepro/EHHS.sm;
#HASMUSIC:1;
#HASBANNER:1;
#MUSICLENGTH:109.451;
// end cache tags

//---------------dance-single - ----------------
#NOTES:
     dance-single:
     :
     Hard:
     11:
     1.000,1.000,0.804,0.155,1.000,837.000,88.000,17.000,0.000,7.000:  // measure 1
0000
0000
0000
0000
,  // measure 2
0000
0000
0000
0000
,  // measure 3
0100
0010
1001
0100
0010
0100
1001
0100
,  // measure 4
0010
0100
1001
0100
0010
0110
1001
1010
,  // measure 5
0101
1000
0100
0010
0001
0000
1000
0010
0000
0100
0001
1000
0100
1000
0010
0100
,  // measure 6
0001
0000
1000
0100
0000
0010
0001
0000
1000
0001
1000
0100
0000
0010
0001
0000
,  // measure 7
1000
0000
1000
0010
0000
1000
0010
0100
0001
1000
0100
1000
0010
0100
0001
0000
,  // measure 8
1000
0000
0001
1000
0000
0010
1000
0100
1000
0001
0100
0010
1000
0100
1000
0010
,  // measure 9
0100
0010
1000
0010
1000
0000
0100
0010
0000
0001
1000
0100
1000
0010
0100
0010
,  // measure 10
1000
0000
0100
1000
0000
0001
0100
0000
0001
0100
0010
1000
0000
0100
1000
0010
,  // measure 11
0100
0000
0010
0100
0000
0010
0100
0001
1000
0100
0010
0001
1000
0010
0100
0000
,  // measure 12
0010
0000
1000
0100
0000
1000
0001
0100
0002
0000
0000
0000
1013
0000
0000
0000
,  // measure 13
1000
0100
0010
0100
1000
0000
0001
0100
0000
0010
1000
0100
1000
0010
0100
0001
,  // measure 14
1000
0000
0100
0010
0000
0001
0100
0000
0010
1000
0100
0010
0000
0001
0010
0001
,  // measure 15
0100
0000
0010
1000
0000
0100
0010
0001
0100
0010
1000
0100
0010
0100
1000
0000
,  // measure 16
0010
0000
0100
0001
0000
1000
0100
1000
0001
0100
0010
1000
0100
1000
0001
0000
,  // measure 17
0001
1000
0010
0100
0001
0000
1000
0100
0000
0010
0001
0100
0010
1000
0100
1000
,  // measure 18
0001
0000
0100
0010
0000
1000
0100
0000
0010
0001
1000
0010
0000
0100
0001
1000
,  // measure 19
0010
0000
1000
0100
0000
0010
0100
1000
0010
0100
0001
1000
0100
1000
0010
0000
,  // measure 20
0100
0000
0001
1000
0000
0010
0100
0000
0002
0000
0000
0000
2003
0000
0000
0000
,  // measure 21
3110
0100
0001
0100
1010
0100
0011
0011
,  // measure 22
1000
0001
0100
0010
1100
0001
0110
0110
,  // measure 23
1000
0100
0010
0100
0110
0001
1010
1010
,  // measure 24
0200
0302
1103
1100
0200
0302
1103
1100
,  // measure 25
0010
0100
0001
1000
0100
1000
0010
0100
,  // measure 26
0001
1100
0101
1100
0110
1001
0011
1100
,  // measure 27
1010
1100
0100
0120
0000
0000
0000
0000
,  // measure 28
0030
0000
0000
0000
0000
0000
0000
0000
0001
1000
0010
0100
0010
1000
0100
0010
,  // measure 29
0001
1000
0010
0100
1001
1000
0110
0110
,  // measure 30
0010
1000
0100
0010
1001
0001
1010
1010
,  // measure 31
0100
0010
0100
1000
0101
0100
1010
1010
,  // measure 32
2000
3101
2000
3101
,  // measure 33
1010
0100
0001
0010
0000
0010
0000
0010
,  // measure 34
0000
0010
0001
0100
0010
1000
0100
0010
,  // measure 35
0011
0001
0100
0020
0000
0000
0030
0000
,  // measure 36
0000
0000
0000
0000
1010
0000
0000
0000
0101
1000
0100
0000
1100
0000
1010
0000
,  // measure 37
1001
0100
1010
0101
0001
1100
1000
0110
,  // measure 38
1000
0001
1100
0010
0101
0010
1100
0010
,  // measure 39
0011
1000
0101
1010
0100
1100
0100
0110
,  // measure 40
0010
0001
1100
1000
0101
0001
0110
0010
,  // measure 41
1010
1000
1001
0011
0001
0101
0010
0101
,  // measure 42
1000
0100
1010
1000
0101
0001
0110
1000
,  // measure 43
1001
0010
0100
0010
0100
0010
0100
1001
,  // measure 44
0100
0010
1001
0100
0010
1010
0101
1100
,  // measure 45
0001
0000
0000
0000
,  // measure 46
0000
0000
0000
0000
0000
0001
1000
0001
,  // measure 47
1001
0100
0001
1000
0100
0010
0001
0100
0010
1000
0010
0100
0001
1000
0100
0010
,  // measure 48
0001
1000
0010
0100
0010
1000
0100
1000
0001
0100
0010
1000
0010
0100
0001
1000
,  // measure 49
0100
0010
0001
0100
0010
1000
0001
0100
0001
1000
0100
0010
0100
1000
0001
0100
,  // measure 50
0010
1000
0100
1000
0001
0010
0100
1000
0001
0100
0010
1000
0100
1000
0010
0100
,  // measure 51
0001
1000
0100
0010
0001
0100
0010
1000
0100
0010
0001
0100
0001
1000
0010
0100
,  // measure 52
0001
1000
0001
0100
0010
0100
0001
1000
0100
0010
0001
0100
0010
1000
0010
0100
,  // measure 53
0001
1000
0010
1000
0001
0100
0001
1000
0100
0010
0001
0100
0010
1000
0010
0100
,  // measure 54
0110
0000
1010
0000
1100
0000
0110
0000
0100
0010
0001
0000
0100
0000
0010
0000
,  // measure 55
1000
0100
1000
0001
0100
0010
1000
0100
0010
0001
0010
0100
1000
0001
0100
0010
,  // measure 56
0100
0001
1000
0010
0100
0001
0010
0100
1000
0001
0100
0010
1000
0100
0010
0001
,  // measure 57
0100
0010
1000
0100
0010
0100
1000
0001
0100
0010
1000
0010
0100
0001
1000
0100
,  // measure 58
0010
0001
0100
0010
1000
0001
0100
0001
0010
0100
1000
0001
0100
0010
1000
0100
,  // measure 59
1000
0010
0100
0001
1000
0001
0100
0010
1000
0100
0010
0001
0100
0010
1000
0010
,  // measure 60
0100
0001
1000
0100
0010
0001
1000
0010
0100
0001
1000
0010
0100
0010
1000
0100
,  // measure 61
1000
0001
0100
0010
0100
0001
1000
0100
1000
0010
0100
0001
1000
0100
0010
0100
,  // measure 62
1000
0001
0100
0001
0010
0100
1000
0001
0100
0000
1010
0000
1100
0000
0110
0000
,  // measure 63
0001
1000
0100
0010
0100
0000
1000
0010
0000
0100
0001
1000
0100
0010
0001
0100
,  // measure 64
0010
0000
1000
0100
0000
0010
0001
0000
1000
0010
0100
0001
0000
1000
0100
1000
,  // measure 65
0001
0000
0100
0010
0000
1000
0100
0010
0100
1000
0001
0100
0010
1000
0001
0000
,  // measure 66
1000
0000
0010
0100
0000
0001
0100
0010
1000
0100
1000
0001
0100
0001
1000
0100
,  // measure 67
0010
0001
0010
0001
0100
0000
0010
1000
0000
0100
0010
0001
1000
0100
1000
0001
,  // measure 68
0010
0000
0100
1000
0000
0001
0100
0000
0010
1000
0100
1000
0000
0001
0010
0100
,  // measure 69
1000
0000
0001
0010
0000
0001
0100
0010
0100
0001
1000
0100
1000
0001
0100
0000
,  // measure 70
0010
0000
1000
0100
0000
1000
0100
1000
0002
0000
0000
0000
0203
0000
0000
0000
,  // measure 71
0310
1000
0100
1000
0001
0000
0100
0010
0000
1000
0100
0010
0001
1000
0010
0100
,  // measure 72
0001
0000
1000
0100
0000
0010
0001
0000
0100
0010
1000
0100
0000
0010
0001
1000
,  // measure 73
0010
0000
0100
0001
0000
1000
0100
1000
0001
0100
0010
0100
0001
1000
0100
0000
,  // measure 74
0001
0000
0010
0100
0000
1000
0010
0100
0001
1000
0001
0100
0010
1000
0010
0000
,  // measure 75
0100
0001
1000
0100
1000
0000
0010
0100
0000
0001
1000
0100
1000
0001
0100
0010
,  // measure 76
1000
0000
0001
0100
0000
0010
1000
0000
0100
0010
0001
0100
0000
0010
0100
0001
,  // measure 77
1000
0000
0100
0010
0000
0001
0100
0010
0100
0001
1000
0010
0100
0010
1000
0000
,  // measure 78
0001
0000
0010
0100
0000
1000
0001
0100
0020
0000
0000
0000
0230
0000
0000
0000
,  // measure 79
2302
0000
0000
0000
0000
3003
0000
0000
;
